Posted : 1 Month ago

  1.                  CCCCCCCCCCCCC               AAA         TTTTTTTTTTTTTTTTTTTTTTT
  2.           CCC::::::::::::C              A:::A        T:::::::::::::::::::::T
  3.         CC:::::::::::::::C             A:::::A       T:::::::::::::::::::::T
  4.    C:::::CCCCCCCC::::C            A:::::::A      T:::::TT:::::::TT:::::T
  5.   C:::::C       CCCCCC           A:::::::::A     TTTTTT  T:::::T  TTTTTT
  6.  C:::::C                        A:::::A:::::A            T:::::T        
  7.  C:::::C                       A:::::A A:::::A           T:::::T        
  8.  C:::::C                      A:::::A   A:::::A          T:::::T        
  9.  C:::::C                     A:::::A     A:::::A         T:::::T        
  10.  C:::::C                    A:::::AAAAAAAAA:::::A        T:::::T        
  11.  C:::::C                   A:::::::::::::::::::::A       T:::::T        
  12.   C:::::C       CCCCCC    A:::::AAAAAAAAAAAAA:::::A      T:::::T        
  13.    C:::::CCCCCCCC::::C   A:::::A             A:::::A   TT:::::::TT      
  14.         CC:::::::::::::::C  A:::::A               A:::::A  T:::::::::T      
  15.       CCC::::::::::::C A:::::A                 A:::::A T:::::::::T      
  16.              CCCCCCCCCCCCCAAAAAAA                   AAAAAAATTTTTTTTTTT
  17.  
  18. +-+-+-+-+-+-+-+-+-+-+-+-+-+-+-+-+-+-+-+-+-+-+-+-+-+-+-+-+-+-+-+-+-+-+-+-+-+-+-+-
  19.  
  20. RELEASE INFO
  21. TITLE : A Street Cat Named Bob (2016)
  22. IMDB : http://www.imdb.com/title/tt3606888
  23. FILENAME : A.Street.Cat.Named.Bob.2016.HDrip.HC.700MB.x264-CAT
  24. VIDEO FORMAT : x264 AVC HIGH@L3
  25. AUDIO FORMAT : AAC 96kbps
  26. RESOLUTION : 640 x 336
  27. DURATION : 1 h 38 min
  28. SIZE : 700MB
  29.  
  30. SAMPLE INCLUDED
  31.  
  32. DE-WATERMARKED release. Some of the watermarks were pretty messy.
  33. So don't mind the crude de-watermarking on some places.
  34. CONTACT US @ cat-releases@gmx.com
  35.  
  36. Screenshots
  37. https://extraimage.net/images/2017/01/09/4426c953504b5749348ca9deb1a5a47f.jpg
  38. https://extraimage.net/images/2017/01/09/e01e8e29dd2a5d32421a89a8b51056e2.jpg
  39. https://extraimage.net/images/2017/01/09/5bba21035ff96ffb7c72823eb9740aad.jpg
  40. https://extraimage.net/images/2017/01/09/e3be99433908f7f67612ad68a7a5922f.gif
  41.  
  42. Format                      : MPEG-4
  43. Format profile              : Base Media
  44. Codec ID                    : isom (isom/avc1)
  45. File size                   : 697 MiB
  46. Duration                    : 1 h 37 min
  47. Overall bit rate mode       : Variable
  48. Overall bit rate            : 996 kb/s
  49. Encoded date                : UTC 2017-01-09 22:29:57
  50. Tagged date                 : UTC 2017-01-09 22:29:57
  51. Writing application         : My MP4Box GUI 0.6.0.6 <http://my-mp4box-gui.zymichost.com>
  52.  
  53. Video
  54. ID                          : 1
  55. Format                      : AVC
  56. Format/Info                 : Advanced Video Codec
  57. Format profile              : High@L3
  58. Format settings, CABAC      : Yes
  59. Format settings, ReFrames   : 8 frames
  60. Codec ID                    : avc1
  61. Codec ID/Info               : Advanced Video Coding
  62. Duration                    : 1 h 37 min
  63. Bit rate                    : 897 kb/s
  64. Maximum bit rate            : 2 815 kb/s
  65. Width                       : 640 pixels
  66. Height                      : 336 pixels
  67. Display aspect ratio        : 1.905
  68. Frame rate mode             : Constant
  69. Frame rate                  : 25.000 FPS
  70. Color space                 : YUV
  71. Chroma subsampling          : 4:2:0
  72. Bit depth                   : 8 bits
  73. Scan type                   : Progressive
  74. Bits/(Pixel*Frame)          : 0.167
  75. Stream size                 : 627 MiB (90%)
  76. Title                       : A.Street.Cat.Named.Bob.2016.HDrip.HC.700MB.x264-CAT-muxed_track1_und.h264
  77. Writing library             : x264 core 148 r2705 3f5ed56
  78. Encoding settings           : cabac=1 / ref=8 / deblock=1:0:0 / analyse=0x3:0x113
  79.         / me=umh / subme=9 / psy=1 / psy_rd=1.00:0.00 / mixed_ref=1 / me_range=24
  80.         / chroma_me=1 / trellis=1 / 8x8dct=1 / cqm=0 / deadzone=21,11 / fast_pskip=1
  81.         / chroma_qp_offset=-2 / threads=6 / lookahead_threads=1 / sliced_threads=0
  82.         / nr=0 / decimate=1 / interlaced=0 / bluray_compat=0 / constrained_intra=0
  83.         / bframes=5 / b_pyramid=2 / b_adapt=2 / b_bias=0 / direct=3 / weightb=1
  84.         / open_gop=0 / weightp=2 / keyint=300 / keyint_min=29 / scenecut=40
  85.         / intra_refresh=0 / rc_lookahead=60 / rc=2pass / mbtree=1 / bitrate=821
  86.         / ratetol=1.0 / qcomp=0.60 / qpmin=0 / qpmax=69 / qpstep=4 / cplxblur=20.0
  87.         / qblur=0.5 / ip_ratio=1.40 / aq=2:1.00
  88. Encoded date                : UTC 2017-01-09 22:29:57
  89. Tagged date                 : UTC 2017-01-09 22:30:10
  90.  
  91. Audio
  92. ID                          : 2
  93. Format                      : AAC
  94. Format/Info                 : Advanced Audio Codec
  95. Format profile              : LC
  96. Codec ID                    : 40
  97. Duration                    : 1 h 37 min
  98. Bit rate mode               : Variable
  99. Bit rate                    : 96.0 kb/s
  100. Maximum bit rate            : 122 kb/s
  101. Channel(s)                  : 2 channels
  102. Channel positions           : Front: L R
  103. Sampling rate               : 48.0 kHz
  104. Frame rate                  : 46.875 FPS (1024 spf)
  105. Compression mode            : Lossy
  106. Stream size                 : 67.2 MiB (10%)
  107. Title                       : A.Street.Cat.Named.Bob.2016.HDrip.HC.700MB.x264-CAT-muxed_track2_cat.aac
  108. Encoded date                : UTC 2017-01-09 22:30:06
  109. Tagged date                 : UTC 2017-01-09 22:30:10