Posted : 9 Months ago

  1. General
  2. Complete name                            : D:\T.D.R.2016.WEB-DL.XviD.AC3-FGT.avi
  3. Format                                   : AVI
  4. Format/Info                              : Audio Video Interleave
  5. File size                                : 1.41 GiB
  6. Duration                                 : 1 h 25 min
  7. Overall bit rate                         : 2 378 kb/s
  8. Movie name                               : The.Disappointments.Room.2016.WEB-DL.XviD.AC3-FGT
  9. Writing library                          : VirtualDub build 35491/release
  10. Comment                                  : The.Disappointments.Room.2016.WEB-DL.XviD.AC3-FGT
  11.  
  12. Video
  13. ID                                       : 0
  14. Format                                   : MPEG-4 Visual
  15. Format profile                           : [email protected]
  16. Format settings, BVOP                    : No
  17. Format settings, QPel                    : No
  18. Format settings, GMC                     : No warppoints
  19. Format settings, Matrix                  : Default (H.263)
  20. Codec ID                                 : XVID
  21. Codec ID/Hint                            : XviD
  22. Duration                                 : 1 h 25 min
  23. Bit rate                                 : 1 985 kb/s
  24. Width                                    : 720 pixels
  25. Height                                   : 304 pixels
  26. Display aspect ratio                     : 2.40:1
  27. Frame rate                               : 23.976 (24000/1001) FPS
  28. Color space                              : YUV
  29. Chroma subsampling                       : 4:2:0
  30. Bit depth                                : 8 bits
  31. Scan type                                : Progressive
  32. Compression mode                         : Lossy
  33. Bits/(Pixel*Frame)                       : 0.378
  34. Stream size                              : 1.18 GiB (83%)
  35. Writing library                          : Lavc57.16.101
  36.  
  37. Audio
  38. ID                                       : 1
  39. Format                                   : AC-3
  40. Format/Info                              : Audio Coding 3
  41. Mode extension                           : CM (complete main)
  42. Format settings, Endianness              : Big
  43. Codec ID                                 : 2000
  44. Duration                                 : 1 h 25 min
  45. Bit rate mode                            : Constant
  46. Bit rate                                 : 384 kb/s
  47. Channel(s)                               : 6 channels
  48. Channel positions                        : Front: L C R, Side: L R, LFE
  49. Sampling rate                            : 48.0 kHz
  50. Frame rate                               : 31.250 FPS (1536 spf)
  51. Bit depth                                : 16 bits
  52. Compression mode                         : Lossy
  53. Stream size                              : 234 MiB (16%)
  54. Alignment                                : Aligned on interleaves
  55. Interleave, duration                     : 42  ms (1.00 video frame)
  56. Interleave, preload duration             : 512  ms
  57.  
  58.