Posted : 2 Months ago

  1. General
  2. Complete name                            : D:\A.Nutcracker.Christmas.2016.HDTV.x264-Poke.mp4
  3. Format                                   : MPEG-4
  4. Format profile                           : Base Media / Version 2
  5. Codec ID                                 : mp42 (isom/iso2/avc1/mp41)
  6. File size                                : 545 MiB
  7. Duration                                 : 1 h 26 min
  8. Overall bit rate mode                    : Variable
  9. Overall bit rate                         : 884 kb/s
  10. Encoded date                             : UTC 2016-12-11 06:29:25
  11. Tagged date                              : UTC 2016-12-11 06:29:25
  12. Writing application                      : HandBrake 0.10.5 2016021100
  13.  
  14. Video
  15. ID                                       : 1
  16. Format                                   : AVC
  17. Format/Info                              : Advanced Video Codec
  18. Format profile                           : [email protected]
  19. Format settings, CABAC                   : Yes
  20. Format settings, ReFrames                : 4 frames
  21. Codec ID                                 : avc1
  22. Codec ID/Info                            : Advanced Video Coding
  23. Duration                                 : 1 h 26 min
  24. Bit rate                                 : 716 kb/s
  25. Width                                    : 720 pixels
  26. Height                                   : 406 pixels
  27. Display aspect ratio                     : 16:9
  28. Original display aspect ratio            : 16:9
  29. Frame rate mode                          : Variable
  30. Frame rate                               : 24.649 FPS
  31. Minimum frame rate                       : 19.978 FPS
  32. Maximum frame rate                       : 29.970 FPS
  33. Color space                              : YUV
  34. Chroma subsampling                       : 4:2:0
  35. Bit depth                                : 8 bits
  36. Scan type                                : Progressive
  37. Bits/(Pixel*Frame)                       : 0.099
  38. Stream size                              : 442 MiB (81%)
  39. Writing library                          : x264 core 142 r2479 dd79a61
  40. Encoding settings                        : cabac=1 / ref=1 / deblock=1:0:0 / analyse=0x1:0x111 / me=hex / subme=2 / psy=1 / psy_rd=1.00:0.00 / mixed_ref=0 / me_range=16 / chroma_me=1 / trellis=0 / 8x8dct=0 / cqm=0 / deadzone=21,11 / fast_pskip=1 / chroma_qp_offset=0 / threads=36 / lookahead_threads=3 / sliced_threads=0 / nr=0 / decimate=1 / interlaced=0 / bluray_compat=0 / constrained_intra=0 / bframes=3 / b_pyramid=2 / b_adapt=1 / b_bias=0 / direct=1 / weightb=1 / open_gop=0 / weightp=1 / keyint=250 / keyint_min=25 / scenecut=40 / intra_refresh=0 / rc_lookahead=10 / rc=crf / mbtree=1 / crf=20.0 / qcomp=0.60 / qpmin=0 / qpmax=69 / qpstep=4 / vbv_maxrate=20000 / vbv_bufsize=25000 / crf_max=0.0 / nal_hrd=none / filler=0 / ip_ratio=1.40 / aq=1:1.00
  41. Encoded date                             : UTC 2016-12-11 06:29:25
  42. Tagged date                              : UTC 2016-12-11 06:29:25
  43. Color range                              : Limited
  44. Color primaries                          : BT.709
  45. Transfer characteristics                 : BT.709
  46. Matrix coefficients                      : BT.709
  47.  
  48. Audio
  49. ID                                       : 2
  50. Format                                   : AAC
  51. Format/Info                              : Advanced Audio Codec
  52. Format profile                           : LC
  53. Codec ID                                 : 40
  54. Duration                                 : 1 h 26 min
  55. Bit rate mode                            : Variable
  56. Bit rate                                 : 160 kb/s
  57. Channel(s)                               : 2 channels
  58. Channel positions                        : Front: L R
  59. Sampling rate                            : 48.0 kHz
  60. Frame rate                               : 46.875 FPS (1024 spf)
  61. Compression mode                         : Lossy
  62. Stream size                              : 98.9 MiB (18%)
  63. Title                                    : Stereo / Stereo
  64. Default                                  : Yes
  65. Alternate group                          : 1
  66. Encoded date                             : UTC 2016-12-11 06:29:25
  67. Tagged date                              : UTC 2016-12-11 06:29:25
  68.  
  69.