Posted : 3 Months ago

  1. General
  2. Unique ID                                : 195106108594467714208854820803113143191 (0x92C811D70A29575BAEF7A7CABAAC4B97)
  3. Complete name                            : D:\JRNGOCH.HDTS.x264.AC3.TiTAN.mkv
  4. Format                                   : Matroska
  5. Format version                           : Version 2
  6. File size                                : 2.18 GiB
  7. Duration                                 : 1h 58mn
  8. Overall bit rate mode                    : Variable
  9. Overall bit rate                         : 2 645 Kbps
  10. Encoded date                             : UTC 2016-10-26 04:10:31
  11. Writing application                      : mkvmerge v8.5.2 ('Crosses') 32bit
  12. Writing library                          : libebml v1.3.3 + libmatroska v1.4.4
  13.  
  14. Video
  15. ID                                       : 1
  16. Format                                   : AVC
  17. Format/Info                              : Advanced Video Codec
  18. Format profile                           : High@L4.1
  19. Format settings, CABAC                   : Yes
  20. Format settings, ReFrames                : 3 frames
  21. Codec ID                                 : V_MPEG4/ISO/AVC
  22. Duration                                 : 1h 53mn
  23. Bit rate mode                            : Variable
  24. Bit rate                                 : 2 550 Kbps
  25. Maximum bit rate                         : 40.0 Mbps
  26. Width                                    : 640 pixels
  27. Height                                   : 272 pixels
  28. Display aspect ratio                     : 2.35:1
  29. Frame rate mode                          : Constant
  30. Frame rate                               : 25.000 fps
  31. Color space                              : YUV
  32. Chroma subsampling                       : 4:2:0
  33. Bit depth                                : 8 bits
  34. Scan type                                : Progressive
  35. Bits/(Pixel*Frame)                       : 0.586
  36. Stream size                              : 2.02 GiB (93%)
  37. Writing library                          : x264 core 148 r2638 7599210
  38. Encoding settings                        : cabac=1 / ref=4 / deblock=1:-1:-1 / analyse=0x3:0x133 / me=umh / subme=10 / psy=1 / psy_rd=1.00:0.15 / mixed_ref=1 / me_range=24 / chroma_me=1 / trellis=2 / 8x8dct=1 / cqm=0 / deadzone=21,11 / fast_pskip=1 / chroma_qp_offset=-3 / threads=8 / lookahead_threads=1 / sliced_threads=0 / slices=4 / nr=0 / decimate=1 / interlaced=0 / bluray_compat=0 / constrained_intra=0 / bframes=3 / b_pyramid=1 / b_adapt=2 / b_bias=0 / direct=3 / weightb=1 / open_gop=0 / weightp=0 / keyint=24 / keyint_min=2 / scenecut=40 / intra_refresh=0 / rc_lookahead=24 / rc=2pass / mbtree=1 / bitrate=2550 / ratetol=1.0 / qcomp=0.60 / qpmin=10 / qpmax=51 / qpstep=4 / cplxblur=20.0 / qblur=0.5 / vbv_maxrate=40000 / vbv_bufsize=30000 / nal_hrd=vbr / filler=0 / ip_ratio=1.40 / aq=1:1.00
  39. Default                                  : Yes
  40. Forced                                   : No
  41. Color range                              : Full
  42. Color primaries                          : BT.709
  43. Transfer characteristics                 : BT.709
  44. Matrix coefficients                      : BT.709
  45.  
  46. Audio
  47. ID                                       : 2
  48. Format                                   : MPEG Audio
  49. Format version                           : Version 1
  50. Format profile                           : Layer 3
  51. Codec ID                                 : A_MPEG/L3
  52. Codec ID/Hint                            : MP3
  53. Duration                                 : 1h 58mn
  54. Bit rate mode                            : Constant
  55. Bit rate                                 : 192 Kbps
  56. Channel(s)                               : 2 channels
  57. Sampling rate                            : 44.1 KHz
  58. Frame rate                               : 38.281 fps (1152 spf)
  59. Compression mode                         : Lossy
  60. Stream size                              : 162 MiB (7%)
  61. Writing library                          : LAME3.99.5
  62. Default                                  : Yes
  63. Forced                                   : No
  64.  
  65.