Posted : 3 Months ago

  1. General
  2. Unique ID                                : 234474119919692689279821575517777116744 (0xB06612A7DA1B778889157BF003DF3E48)
  3. Complete name                            : D:\before.the.flood.2016.720p.hdtv.x264-crooks.mkv
  4. Format                                   : Matroska
  5. Format version                           : Version 4 / Version 2
  6. File size                                : 2.16 GiB
  7. Duration                                 : 1h 35mn
  8. Overall bit rate                         : 3 236 Kbps
  9. Encoded date                             : UTC 2016-10-31 03:15:56
  10. Writing application                      : mkvmerge v9.5.0 ('Quiet Fire') 64bit
  11. Writing library                          : libebml v1.3.4 + libmatroska v1.4.5
  12.  
  13. Video
  14. ID                                       : 1
  15. Format                                   : AVC
  16. Format/Info                              : Advanced Video Codec
  17. Format profile                           : High@L4.1
  18. Format settings, CABAC                   : Yes
  19. Format settings, ReFrames                : 5 frames
  20. Codec ID                                 : V_MPEG4/ISO/AVC
  21. Duration                                 : 1h 35mn
  22. Bit rate                                 : 2 850 Kbps
  23. Width                                    : 1 280 pixels
  24. Height                                   : 720 pixels
  25. Display aspect ratio                     : 16:9
  26. Frame rate mode                          : Constant
  27. Frame rate                               : 23.976 (24000/1001) fps
  28. Color space                              : YUV
  29. Chroma subsampling                       : 4:2:0
  30. Bit depth                                : 8 bits
  31. Scan type                                : Progressive
  32. Bits/(Pixel*Frame)                       : 0.129
  33. Stream size                              : 1.90 GiB (88%)
  34. Writing library                          : x264 core 148 r2705 3f5ed56
  35. Encoding settings                        : cabac=1 / ref=5 / deblock=1:0:0 / analyse=0x3:0x113 / me=umh / subme=8 / psy=1 / psy_rd=1.00:0.00 / mixed_ref=1 / me_range=16 / chroma_me=1 / trellis=1 / 8x8dct=1 / cqm=0 / deadzone=21,11 / fast_pskip=1 / chroma_qp_offset=-2 / threads=12 / lookahead_threads=2 / sliced_threads=0 / nr=0 / decimate=1 / interlaced=0 / bluray_compat=0 / constrained_intra=0 / bframes=3 / b_pyramid=2 / b_adapt=2 / b_bias=0 / direct=3 / weightb=1 / open_gop=0 / weightp=2 / keyint=250 / keyint_min=23 / scenecut=40 / intra_refresh=0 / rc_lookahead=50 / rc=crf / mbtree=1 / crf=20.0 / qcomp=0.60 / qpmin=0 / qpmax=69 / qpstep=4 / ip_ratio=1.40 / aq=1:1.00
  36. Default                                  : Yes
  37. Forced                                   : No
  38. Color range                              : Limited
  39. Matrix coefficients                      : BT.709
  40.  
  41. Audio
  42. ID                                       : 2
  43. Format                                   : AC-3
  44. Format/Info                              : Audio Coding 3
  45. Mode extension                           : CM (complete main)
  46. Format settings, Endianness              : Big
  47. Codec ID                                 : A_AC3
  48. Duration                                 : 1h 35mn
  49. Bit rate mode                            : Constant
  50. Bit rate                                 : 384 Kbps
  51. Channel(s)                               : 6 channels
  52. Channel positions                        : Front: L C R, Side: L R, LFE
  53. Sampling rate                            : 48.0 KHz
  54. Frame rate                               : 31.250 fps (1536 spf)
  55. Compression mode                         : Lossy
  56. Stream size                              : 262 MiB (12%)
  57. Language                                 : English
  58. Default                                  : Yes
  59. Forced                                   : No
  60.  
  61. Text
  62. ID                                       : 3
  63. Format                                   : UTF-8
  64. Codec ID                                 : S_TEXT/UTF8
  65. Codec ID/Info                            : UTF-8 Plain Text
  66. Duration                                 : 1h 35mn
  67. Bit rate                                 : 113 bps
  68. Count of elements                        : 1637
  69. Stream size                              : 79.1 KiB (0%)
  70. Language                                 : English
  71. Default                                  : No
  72. Forced                                   : No
  73.  
  74.