Posted : 2 Weeks ago

  1. Sing 2016 READNFO CAM XviD AC3 ACAB
  2.  
  3. http://www.imdb.com/title/tt3470600
  4.  
  5.  
  6.  
  7. READNFO Reason
  8. For Some Reason When Syncing Video And Audio Its Duplicated Frames When This Happens It Only Lasts A Second Doesnt Spoil The Movie (Hopefully Not Anyways) Maybe I Proper Encoder Could Sync Properly But I Dont Pretend That Im Great Far From It. So For Now Enjoy ...
  9.  
  10. P.s. Theres More Stuff In The Pipeline >>>
  11.  
  12. Source Video - MVGEE [Thanks]
  13. Source Audio - Thanks Bro :bow:
  14.  
  15. Format                                   : AVI
  16. Format/Info                              : Audio Video Interleave
  17. File size                                : 1.42 GiB
  18. Duration                                 : 1 h 41 min
  19. Overall bit rate                         : 2 001 kb/s
  20. Writing library                          : VirtualDub build 30091/release
  21.  
  22. Video
  23. ID                                       : 0
  24. Format                                   : MPEG-4 Visual
  25. Format profile                           : Advanced Simple@L5
  26. Format settings, BVOP                    : 2
  27. Format settings, QPel                    : No
  28. Format settings, GMC                     : No warppoints
  29. Format settings, Matrix                  : Default (H.263)
  30. Muxing mode                              : Packed bitstream
  31. Codec ID                                 : XVID
  32. Codec ID/Hint                            : XviD
  33. Duration                                 : 1 h 41 min
  34. Bit rate                                 : 1 800 kb/s
  35. Width                                    : 720 pixels
  36. Height                                   : 384 pixels
  37. Display aspect ratio                     : 1.85:1
  38. Frame rate                               : 25.000 FPS
  39. Color space                              : YUV
  40. Chroma subsampling                       : 4:2:0
  41. Bit depth                                : 8 bits
  42. Scan type                                : Progressive
  43. Compression mode                         : Lossy
  44. Bits/(Pixel*Frame)                       : 0.260
  45. Stream size                              : 1.28 GiB (90%)
  46. Writing library                          : XviD 67
  47.  
  48. Audio
  49. ID                                       : 1
  50. Format                                   : AC-3
  51. Format/Info                              : Audio Coding 3
  52. Mode extension                           : CM (complete main)
  53. Format settings, Endianness              : Big
  54. Codec ID                                 : 2000
  55. Duration                                 : 1 h 41 min
  56. Bit rate mode                            : Constant
  57. Bit rate                                 : 192 kb/s
  58. Channel(s)                               : 1 channel
  59. Channel positions                        : Front: C
  60. Sampling rate                            : 48.0 kHz
  61. Frame rate                               : 31.250 FPS (1536 spf)
  62. Compression mode                         : Lossy
  63. Stream size                              : 139 MiB (10%)
  64. Alignment                                : Aligned on interleaves
  65. Interleave, duration                     : 40  ms (1.00 video frame)
  66. Interleave, preload duration             : 512  ms
  67.