Posted : 8 Months ago

  1. Video
  2. ID                                       : 1
  3. Format                                   : AVC
  4. Format/Info                              : Advanced Video Codec
  5. Format profile                           : [email protected]
  6. Format settings, CABAC                   : Yes
  7. Format settings, ReFrames                : 9 frames
  8. Codec ID                                 : V_MPEG4/ISO/AVC
  9. Duration                                 : 2h 42mn
  10. Bit rate                                 : 8 359 Kbps
  11. Width                                    : 1 280 pixels
  12. Height                                   : 694 pixels
  13. Display aspect ratio                     : 1.85:1
  14. Frame rate mode                          : Constant
  15. Frame rate                               : 24.000 fps
  16. Color space                              : YUV
  17. Chroma subsampling                       : 4:2:0
  18. Bit depth                                : 8 bits
  19. Scan type                                : Progressive
  20. Bits/(Pixel*Frame)                       : 0.392
  21. Stream size                              : 9.47 GiB (92%)
  22. Title                                    : -EA
  23. Writing library                          : x264 core 148 r2744+55 950084e t_mod_Custom [[email protected] X86_64]
  24. Encoding settings                        : cabac=1 / ref=9 / deblock=1:-3:-3 / analyse=0x3:0x113 / me=umh / subme=10 / psy=1 / fade_compensate=0.00 / psy_rd=1.04:0.00 / mixed_ref=1 / me_range=32 / chroma_me=1 / trellis=2 / 8x8dct=1 / cqm=0 / deadzone=21,11 / fast_pskip=0 / chroma_qp_offset=-2 / threads=22 / lookahead_threads=3 / sliced_threads=0 / nr=0 / decimate=0 / interlaced=0 / bluray_compat=0 / constrained_intra=0 / fgo=0 / bframes=8 / b_pyramid=2 / b_adapt=2 / b_bias=0 / direct=3 / weightb=1 / open_gop=0 / weightp=2 / keyint=240 / keyint_min=23 / scenecut=40 / intra_refresh=0 / rc_lookahead=60 / rc=crf / mbtree=0 / crf=16.4000 / qcomp=0.75 / qpmin=0:0:0 / qpmax=69:69:69 / qpstep=4 / vbv_maxrate=62500 / vbv_bufsize=78125 / crf_max=0.0 / nal_hrd=none / filler=0 / ip_ratio=1.30 / pb_ratio=1.20 / aq=3:0.80 / aq-sensitivity=10.00 / aq-factor=1.00:1.00:1.00 / aq2=1:0.70 / aq2-sensitivity=15.00 / aq2-factor=1.00:1.00:1.00 / aq3=1:[0.70:0.70]:[0.70:0.70]:[0.70:0.70]:[0.70:0.70] / aq3-sensitivity=10.00 / aq3-factor=[1.00:1.00]:[1.00:1.00]:[1.00:1.00] / aq3-boundary=192:64:24
  25. Language                                 : German
  26. Default                                  : Yes
  27. Forced                                   : No
  28. Color range                              : Limited
  29. Color primaries                          : BT.709
  30. Transfer characteristics                 : BT.709
  31. Matrix coefficients                      : BT.709
  32.  
  33. Audio #1
  34. ID                                       : 2
  35. Format                                   : AC-3
  36. Format/Info                              : Audio Coding 3
  37. Mode extension                           : CM (complete main)
  38. Format settings, Endianness              : Big
  39. Codec ID                                 : A_AC3
  40. Duration                                 : 2h 42mn
  41. Bit rate mode                            : Constant
  42. Bit rate                                 : 640 Kbps
  43. Channel(s)                               : 6 channels
  44. Channel positions                        : Front: L C R, Side: L R, LFE
  45. Sampling rate                            : 48.0 KHz
  46. Frame rate                               : 31.250 fps (1536 spf)
  47. Compression mode                         : Lossy
  48. Stream size                              : 743 MiB (7%)
  49. Language                                 : German
  50. Default                                  : Yes
  51. Forced                                   : Yes
  52.  
  53. Audio #2
  54. ID                                       : 3
  55. Format                                   : AAC
  56. Format/Info                              : Advanced Audio Codec
  57. Format profile                           : HE-AAC / LC
  58. Codec ID                                 : A_AAC
  59. Duration                                 : 2h 42mn
  60. Bit rate                                 : 64.0 Kbps
  61. Channel(s)                               : 2 channels
  62. Channel positions                        : Front: L R
  63. Sampling rate                            : 48.0 KHz / 24.0 KHz
  64. Frame rate                               : 23.438 fps (1024 spf)
  65. Compression mode                         : Lossy
  66. Delay relative to video                  : 31ms
  67. Stream size                              : 74.3 MiB (1%)
  68. Title                                    : Commentary with M. Ade, S. Hüller, P. Simonischek
  69. Language                                 : German
  70. Default                                  : No
  71. Forced                                   : No
  72.  
  73. Text #1
  74. ID                                       : 4
  75. Format                                   : UTF-8
  76. Codec ID                                 : S_TEXT/UTF8
  77. Codec ID/Info                            : UTF-8 Plain Text
  78. Duration                                 : 2h 40mn
  79. Bit rate                                 : 22 bps
  80. Count of elements                        : 869
  81. Stream size                              : 26.6 KiB (0%)
  82. Title                                    : srt
  83. Language                                 : English
  84. Default                                  : Yes
  85. Forced                                   : Yes
  86.  
  87. Text #2
  88. ID                                       : 5
  89. Format                                   : PGS
  90. Muxing mode                              : zlib
  91. Codec ID                                 : S_HDMV/PGS
  92. Codec ID/Info                            : Picture based subtitle format used on BDs/HD-DVDs
  93. Duration                                 : 2h 23mn
  94. Bit rate                                 : 3 176 bps
  95. Count of elements                        : 1024
  96. Stream size                              : 3.26 MiB (0%)
  97. Title                                    : sup
  98. Language                                 : German
  99. Default                                  : No
  100. Forced                                   : No
  101.  
  102. Text #3
  103. ID                                       : 6
  104. Format                                   : PGS
  105. Muxing mode                              : zlib
  106. Codec ID                                 : S_HDMV/PGS
  107. Codec ID/Info                            : Picture based subtitle format used on BDs/HD-DVDs
  108. Duration                                 : 2h 41mn
  109. Bit rate                                 : 10.0 Kbps
  110. Count of elements                        : 3626
  111. Stream size                              : 11.6 MiB (0%)
  112. Title                                    : sup HoH
  113. Language                                 : German
  114. Default                                  : No
  115. Forced                                   : No
  116.  
  117. Menu #1
  118. 00:00:00.000                             : en:00:00:00.000
  119. 00:09:06.625                             : en:00:09:06.625
  120. 00:18:02.917                             : en:00:18:02.917
  121. 00:36:33.833                             : en:00:36:33.833
  122. 00:52:43.833                             : en:00:52:43.833
  123. 01:11:32.167                             : en:01:11:32.167
  124. 01:36:39.917                             : en:01:36:39.917
  125. 02:06:09.958                             : en:02:06:09.958
  126. 02:27:28.958                             : en:02:27:28.958
  127.  
  128. Menu #2
  129. 00:00:00.097                             : en:00:00:00.097