Posted : 5 Months ago

  1. General
  2. Unique ID                                : 171636170840668012582577750752505200028 (0x811FEC91918FDFA59BA304F46CA17D9C)
  3. Complete name                            : D:\MSPGCH.2016.HD-TS.X264-CPG.mkv
  4. Format                                   : Matroska
  5. Format version                           : Version 4 / Version 2
  6. File size                                : 1.85 GiB
  7. Duration                                 : 2h 0mn
  8. Overall bit rate mode                    : Variable
  9. Overall bit rate                         : 2 197 Kbps
  10. Encoded date                             : UTC 2016-10-03 12:38:01
  11. Writing application                      : mkvmerge v9.4.0 ('Knurl') 32bit
  12. Writing library                          : libebml v1.3.4 + libmatroska v1.4.5
  13. IsTruncated                              : Yes
  14.  
  15. Video
  16. ID                                       : 1
  17. Format                                   : AVC
  18. Format/Info                              : Advanced Video Codec
  19. Format profile                           : [email protected]
  20. Format settings, CABAC                   : Yes
  21. Format settings, ReFrames                : 4 frames
  22. Codec ID                                 : V_MPEG4/ISO/AVC
  23. Duration                                 : 2h 0mn
  24. Bit rate mode                            : Variable
  25. Bit rate                                 : 2 000 Kbps
  26. Maximum bit rate                         : 62.5 Mbps
  27. Width                                    : 672 pixels
  28. Height                                   : 304 pixels
  29. Display aspect ratio                     : 2.2:1
  30. Frame rate mode                          : Constant
  31. Frame rate                               : 29.970 (30000/1001) fps
  32. Color space                              : YUV
  33. Chroma subsampling                       : 4:2:0
  34. Bit depth                                : 8 bits
  35. Scan type                                : Progressive
  36. Bits/(Pixel*Frame)                       : 0.327
  37. Stream size                              : 1.68 GiB (91%)
  38. Writing library                          : x264 core 148 r2638 7599210
  39. Encoding settings                        : cabac=1 / ref=5 / deblock=1:0:0 / analyse=0x3:0x133 / me=umh / subme=9 / psy=1 / psy_rd=1.00:0.00 / mixed_ref=1 / me_range=18 / chroma_me=1 / trellis=2 / 8x8dct=1 / cqm=0 / deadzone=21,11 / fast_pskip=0 / chroma_qp_offset=-2 / threads=16 / lookahead_threads=1 / sliced_threads=0 / slices=4 / nr=0 / decimate=1 / interlaced=0 / bluray_compat=0 / constrained_intra=0 / bframes=3 / b_pyramid=1 / b_adapt=2 / b_bias=0 / direct=3 / weightb=1 / open_gop=0 / weightp=2 / keyint=300 / keyint_min=29 / scenecut=40 / intra_refresh=0 / rc_lookahead=40 / rc=abr / mbtree=1 / bitrate=2000 / ratetol=1.0 / qcomp=0.60 / qpmin=10 / qpmax=51 / qpstep=4 / vbv_maxrate=62500 / vbv_bufsize=78125 / nal_hrd=vbr / filler=0 / ip_ratio=1.40 / aq=1:1.00
  40. Default                                  : Yes
  41. Forced                                   : No
  42. Color range                              : Full
  43. Color primaries                          : BT.709
  44. Transfer characteristics                 : BT.709
  45. Matrix coefficients                      : BT.709
  46.  
  47. Audio
  48. ID                                       : 2
  49. Format                                   : MPEG Audio
  50. Format version                           : Version 1
  51. Format profile                           : Layer 3
  52. Codec ID                                 : A_MPEG/L3
  53. Codec ID/Hint                            : MP3
  54. Duration                                 : 2h 0mn
  55. Bit rate mode                            : Constant
  56. Bit rate                                 : 192 Kbps
  57. Channel(s)                               : 2 channels
  58. Sampling rate                            : 44.1 KHz
  59. Frame rate                               : 38.281 fps (1152 spf)
  60. Compression mode                         : Lossy
  61. Delay relative to video                  : 9ms
  62. Stream size                              : 165 MiB (9%)
  63. Default                                  : Yes
  64. Forced                                   : No
  65.  
  66.