Posted : 1 Month ago

  1. Format                                   : AVI
  2.  Format/Info                              : Audio Video Interleave
  3.  File size                                : 1.32 GiB
  4.  Duration                                 : 1 h 40 min
  5.  Overall bit rate                         : 1 881 kb/s
  6.  
  7.  Video
  8.  ID                                       : 0
  9.  Format                                   : MPEG-4 Visual
  10.  Format profile                           : Advanced Simple@L4
  11.  Format settings, BVOP                    : 2
  12.  Format settings, QPel                    : No
  13.  Format settings, GMC                     : No warppoints
  14.  Format settings, Matrix                  : Default (H.263)
  15.  Codec ID                                 : DIVX
  16.  Codec ID/Info                            : Project Mayo
  17.  Codec ID/Hint                            : DivX 4
  18.  Duration                                 : 1 h 40 min
  19.  Bit rate                                 : 1 675 kb/s
  20.  Width                                    : 720 pixels
  21.  Height                                   : 304 pixels
  22.  Display aspect ratio                     : 2.35:1
  23.  Frame rate                               : 29.970 (30000/1001) FPS
  24.  Color space                              : YUV
  25.  Chroma subsampling                       : 4:2:0
  26.  Bit depth                                : 8 bits
  27.  Scan type                                : Progressive
  28.  Compression mode                         : Lossy
  29.  Bits/(Pixel*Frame)                       : 0.255
  30.  Stream size                              : 1.18 GiB (89%)
  31.  Writing library                          : XviD 64
  32.  
  33.  Audio
  34.  ID                                       : 1
  35.  Format                                   : MPEG Audio
  36.  Format version                           : Version 1
  37.  Format profile                           : Layer 3
  38.  Codec ID                                 : 55
  39.  Codec ID/Hint                            : MP3
  40.  Duration                                 : 1 h 18 min
  41.  Source duration                          : 2 h 31 min
  42.  Bit rate mode                            : Constant
  43.  Bit rate                                 : 192 kb/s
  44.  Channel(s)                               : 2 channels
  45.  Sampling rate                            : 44.1 kHz
  46.  Compression mode                         : Lossy
  47.  Stream size                              : 138 MiB (10%)
  48.  Alignment                                : Aligned on interleaves
  49.  Language                                 : English
  50.  Subtitle                                 : YES (ENGLISH) ON FOREIGN PARTS
  51.  
  52.  INFO:
  53.  
  54.  had pleasure to work on A WATERMARKED ASS CPG VIDEO, as usual THE IDIOT WATERMARKED IT BADLY ON MIDDLE,TOP , DOWN , SIDE , LEFT , RIGHT  THROUGH OUT THE WHOLE VIDEO ....AND HE MADE A HUGE CRAP.....
  55.  
  56.  AS usual took sum of the ol' poo shine from my old friend and polished the CPG  turd best we could... remember kids, poo shine help out any encoder or release grp...  to remove CPG crap WATERMARK FROM VIDEO.
  57.  
  58.  Now
  59.  to the re-encoders
  60.  stop being lazy contact us with your group name and we will give u each one POO SHINE SPRAY BOTTLE TO POLISH CPG  TURD  and then lets see what you can do!