Posted : 2 Months ago

  1. Video
  2. ID                                       : 1
  3. Format                                   : AVC
  4. Format/Info                              : Advanced Video Codec
  5. Format profile                           : High@L3.1
  6. Format settings, CABAC                   : Yes
  7. Format settings, ReFrames                : 5 frames
  8. Codec ID                                 : V_MPEG4/ISO/AVC
  9. Duration                                 : 1 h 22 min
  10. Bit rate                                 : 1 418 kb/s
  11. Width                                    : 720 pixels
  12. Height                                   : 406 pixels
  13. Display aspect ratio                     : 16:9
  14. Frame rate mode                          : Constant
  15. Frame rate                               : 23.976 (24000/1001) FPS
  16. Color space                              : YUV
  17. Chroma subsampling                       : 4:2:0
  18. Bit depth                                : 8 bits
  19. Scan type                                : Progressive
  20. Bits/(Pixel*Frame)                       : 0.202
  21. Stream size                              : 835 MiB (92%)
  22. Writing library                          : x264 core 148 r2721 72d53ab
  23. Encoding settings                        : cabac=1 / ref=5 / deblock=1:-2:-2 / analyse=0x3:0x113 / me=umh / subme=8 / psy=1 / psy_rd=1.00:0.00 / mixed_ref=1 / me_range=16 / chroma_me=1 / trellis=1 / 8x8dct=1 / cqm=0 / deadzone=21,11 / fast_pskip=1 / chroma_qp_offset=-2 / threads=12 / lookahead_threads=2 / sliced_threads=0 / nr=0 / decimate=1 / interlaced=0 / bluray_compat=0 / constrained_intra=0 / bframes=3 / b_pyramid=2 / b_adapt=1 / b_bias=0 / direct=3 / weightb=1 / open_gop=0 / weightp=2 / keyint=240 / keyint_min=24 / scenecut=40 / intra_refresh=0 / rc_lookahead=50 / rc=crf / mbtree=1 / crf=19.0 / qcomp=0.60 / qpmin=0 / qpmax=69 / qpstep=4 / ip_ratio=1.40 / aq=1:0.70
  24. Default                                  : Yes
  25. Forced                                   : No
  26.  
  27. Audio
  28. ID                                       : 2
  29. Format                                   : AAC
  30. Format/Info                              : Advanced Audio Codec
  31. Format profile                           : LC
  32. Codec ID                                 : A_AAC
  33. Duration                                 : 1 h 22 min
  34. Bit rate                                 : 116 kb/s
  35. Channel(s)                               : 2 channels
  36. Channel positions                        : Front: L R
  37. Sampling rate                            : 48.0 kHz
  38. Frame rate                               : 46.875 FPS (1024 spf)
  39. Compression mode                         : Lossy
  40. Delay relative to video                  : 9 ms
  41. Stream size                              : 68.1 MiB (8%)
  42. Language                                 : English
  43. Default                                  : Yes
  44. Forced                                   : No