Posted : 4 Months ago

  1. General
  2. Unique ID                                : 246595349299568121730675331731508818398 (0xB98489678C48953AA551A1CAB6E9F1DE)
  3. Complete name                            : D:\M.1974.iNTERNAL.BDRip.x264-LiBRARiANS.mkv
  4. Format                                   : Matroska
  5. Format version                           : Version 4 / Version 2
  6. File size                                : 898 MiB
  7. Duration                                 : 1 h 51 min
  8. Overall bit rate                         : 1 129 kb/s
  9. Encoded date                             : UTC 2016-11-12 14:11:10
  10. Writing application                      : mkvmerge v9.5.0 ('Quiet Fire') 64bit
  11. Writing library                          : libebml v1.3.4 + libmatroska v1.4.5
  12.  
  13. Video
  14. ID                                       : 1
  15. Format                                   : AVC
  16. Format/Info                              : Advanced Video Codec
  17. Format profile                           : [email protected]
  18. Format settings, CABAC                   : Yes
  19. Format settings, ReFrames                : 5 frames
  20. Codec ID                                 : V_MPEG4/ISO/AVC
  21. Duration                                 : 1 h 51 min
  22. Bit rate                                 : 1 047 kb/s
  23. Width                                    : 720 pixels
  24. Height                                   : 300 pixels
  25. Display aspect ratio                     : 2.40:1
  26. Frame rate mode                          : Constant
  27. Frame rate                               : 23.976 (24000/1001) FPS
  28. Color space                              : YUV
  29. Chroma subsampling                       : 4:2:0
  30. Bit depth                                : 8 bits
  31. Scan type                                : Progressive
  32. Bits/(Pixel*Frame)                       : 0.202
  33. Stream size                              : 833 MiB (93%)
  34. Writing library                          : x264 core 148 r2721 72d53ab
  35. Encoding settings                        : cabac=1 / ref=5 / deblock=1:-3:-3 / analyse=0x3:0x113 / me=umh / subme=8 / psy=1 / psy_rd=1.00:0.25 / mixed_ref=1 / me_range=24 / chroma_me=1 / trellis=1 / 8x8dct=1 / cqm=0 / deadzone=21,11 / fast_pskip=1 / chroma_qp_offset=-4 / threads=9 / lookahead_threads=1 / sliced_threads=0 / nr=0 / decimate=1 / interlaced=0 / bluray_compat=0 / constrained_intra=0 / bframes=3 / b_pyramid=2 / b_adapt=1 / b_bias=0 / direct=3 / weightb=1 / open_gop=0 / weightp=2 / keyint=240 / keyint_min=24 / scenecut=40 / intra_refresh=0 / rc_lookahead=50 / rc=crf / mbtree=1 / crf=19.0 / qcomp=0.60 / qpmin=0 / qpmax=69 / qpstep=4 / ip_ratio=1.40 / aq=1:0.75
  36. Default                                  : Yes
  37. Forced                                   : No
  38. Color range                              : Limited
  39. Matrix coefficients                      : BT.709
  40.  
  41. Audio
  42. ID                                       : 2
  43. Format                                   : AAC
  44. Format/Info                              : Advanced Audio Codec
  45. Format profile                           : LC
  46. Codec ID                                 : A_AAC
  47. Duration                                 : 1 h 51 min
  48. Bit rate                                 : 80.2 kb/s
  49. Channel(s)                               : 1 channel
  50. Channel positions                        : Front: C
  51. Sampling rate                            : 48.0 kHz
  52. Frame rate                               : 46.875 FPS (1024 spf)
  53. Compression mode                         : Lossy
  54. Delay relative to video                  : 9 ms
  55. Stream size                              : 63.8 MiB (7%)
  56. Language                                 : English
  57. Default                                  : Yes
  58. Forced                                   : No
  59.  
  60. Menu
  61. 00:00:00.000                             : en:00:00:00.000
  62. 00:05:45.637                             : en:00:05:45.637
  63. 00:08:23.294                             : en:00:08:23.294
  64. 00:13:21.259                             : en:00:13:21.259
  65. 00:15:56.247                             : en:00:15:56.247
  66. 00:19:30.795                             : en:00:19:30.795
  67. 00:21:54.605                             : en:00:21:54.605
  68. 00:24:52.783                             : en:00:24:52.783
  69. 00:27:22.474                             : en:00:27:22.474
  70. 00:29:20.884                             : en:00:29:20.884
  71. 00:33:27.005                             : en:00:33:27.005
  72. 00:36:17.675                             : en:00:36:17.675
  73. 00:39:57.687                             : en:00:39:57.687
  74. 00:42:54.363                             : en:00:42:54.363
  75. 00:49:58.287                             : en:00:49:58.287
  76. 00:52:59.968                             : en:00:52:59.968