Posted : 7 Months ago

  1. Video
  2. ID                                       : 0
  3. Format                                   : MPEG-4 Visual
  4. Format profile                           : Advanced [email protected]
  5. Format settings, BVOP                    : 2
  6. Format settings, QPel                    : No
  7. Format settings, GMC                     : No warppoints
  8. Format settings, Matrix                  : Default (H.263)
  9. Muxing mode                              : Packed bitstream
  10. Codec ID                                 : XVID
  11. Codec ID/Hint                            : XviD
  12. Duration                                 : 1 h 41 min
  13. Bit rate                                 : 844 kb/s
  14. Width                                    : 640 pixels
  15. Height                                   : 272 pixels
  16. Display aspect ratio                     : 2.35:1
  17. Frame rate                               : 23.976 (24000/1001) FPS
  18. Color space                              : YUV
  19. Chroma subsampling                       : 4:2:0
  20. Bit depth                                : 8 bits
  21. Scan type                                : Progressive
  22. Compression mode                         : Lossy
  23. Bits/(Pixel*Frame)                       : 0.202
  24. Stream size                              : 611 MiB (87%)
  25. Writing library                          : XviD 64
  26.  
  27. Audio
  28. ID                                       : 1
  29. Format                                   : MPEG Audio
  30. Format version                           : Version 1
  31. Format profile                           : Layer 3
  32. Mode                                     : Joint stereo
  33. Codec ID                                 : 55
  34. Codec ID/Hint                            : MP3
  35. Duration                                 : 1 h 41 min
  36. Bit rate mode                            : Constant
  37. Bit rate                                 : 112 kb/s
  38. Channel(s)                               : 2 channels
  39. Sampling rate                            : 48.0 kHz
  40. Compression mode                         : Lossy
  41. Stream size                              : 81.1 MiB (12%)
  42. Alignment                                : Split accross interleaves
  43. Interleave, duration                     : 42  ms (1.00 video frame)
  44. Interleave, preload duration             : 500  ms
  45. Writing library                          : LAME3.99r
  46. Encoding settings                        : -m j -V 4 -q 3 -lowpass 15.6 -b 112
  47.  
  48.