Posted : 8 Months ago

  1. Video
  2. ID                                       : 1
  3. Format                                   : AVC
  4. Format/Info                              : Advanced Video Codec
  5. Format profile                           : [email protected]
  6. Format settings, CABAC                   : Yes
  7. Format settings, ReFrames                : 2 frames
  8. Codec ID                                 : V_MPEG4/ISO/AVC
  9. Duration                                 : 1h 34mn
  10. Nominal bit rate                         : 15.5 Mbps
  11. Width                                    : 1 920 pixels
  12. Height                                   : 1 080 pixels
  13. Display aspect ratio                     : 16:9
  14. Frame rate mode                          : Constant
  15. Frame rate                               : 23.976 (24000/1001) fps
  16. Color space                              : YUV
  17. Chroma subsampling                       : 4:2:0
  18. Bit depth                                : 8 bits
  19. Scan type                                : Progressive
  20. Bits/(Pixel*Frame)                       : 0.312
  21. Title                                    : Ice.Age.Collision.Course.2016.1080p.3D.BluRay.Half-SBS.x264.DTS-HD.MA.7.1-FGT
  22. Writing library                          : x264 core 142
  23. Encoding settings                        : cabac=1 / ref=1 / deblock=1:-1:-1 / analyse=0x3:0 / me=hex / subme=5 / psy=0 / mixed_ref=0 / me_range=16 / chroma_me=1 / trellis=0 / 8x8dct=1 / cqm=0 / deadzone=21,11 / fast_pskip=0 / chroma_qp_offset=0 / threads=8 / lookahead_threads=2 / sliced_threads=0 / nr=0 / decimate=1 / interlaced=0 / bluray_compat=0 / constrained_intra=0 / bframes=2 / b_pyramid=0 / b_adapt=1 / b_bias=0 / direct=1 / weightb=0 / open_gop=0 / weightp=0 / keyint=24 / keyint_min=13 / scenecut=40 / intra_refresh=0 / rc=abr / mbtree=0 / bitrate=15500 / ratetol=1.0 / qcomp=0.60 / qpmin=0 / qpmax=69 / qpstep=4 / ip_ratio=1.40 / pb_ratio=1.30 / aq=1:1.00
  24. Default                                  : Yes
  25. Forced                                   : No
  26. Color range                              : Limited
  27. Color primaries                          : BT.709
  28. Transfer characteristics                 : BT.709
  29. Matrix coefficients                      : BT.709
  30.  
  31. Audio #1
  32. ID                                       : 2
  33. Format                                   : DTS
  34. Format/Info                              : Digital Theater Systems
  35. Format profile                           : MA / ES Matrix / Core
  36. Mode                                     : 16
  37. Format settings, Endianness              : Big
  38. Codec ID                                 : A_DTS
  39. Duration                                 : 1h 34mn
  40. Bit rate mode                            : Variable / Constant / Constant
  41. Bit rate                                 : Unknown / 1 509 Kbps / 1 509 Kbps
  42. Channel(s)                               : 8 channels / 7 channels / 6 channels
  43. Channel positions                        : Front: L C R, Side: L R, Back: L R, LFE / Front: L C R, Side: L R, Back: C, LFE / Front: L C R, Side: L R, LFE
  44. Sampling rate                            : 48.0 KHz
  45. Frame rate                               : 93.750 fps (512 spf)
  46. Bit depth                                : 24 bits
  47. Compression mode                         : Lossless / Lossy / Lossy
  48. Title                                    : Ice.Age.Collision.Course.2016.1080p.3D.BluRay.Half-SBS.x264.DTS-HD.MA.7.1-FGT
  49. Language                                 : English
  50. Default                                  : Yes
  51. Forced                                   : No
  52.  
  53. Audio #2
  54. ID                                       : 3
  55. Format                                   : DTS
  56. Format/Info                              : Digital Theater Systems
  57. Format profile                           : ES Matrix / Core
  58. Mode                                     : 16
  59. Format settings, Endianness              : Big
  60. Codec ID                                 : A_DTS
  61. Duration                                 : 1h 34mn
  62. Bit rate mode                            : Constant
  63. Bit rate                                 : 1 509 Kbps
  64. Channel(s)                               : 7 channels / 6 channels
  65. Channel positions                        : Front: L C R, Side: L R, Back: C, LFE / Front: L C R, Side: L R, LFE
  66. Sampling rate                            : 48.0 KHz
  67. Frame rate                               : 93.750 fps (512 spf)
  68. Bit depth                                : 24 bits
  69. Compression mode                         : Lossy
  70. Stream size                              : 1 020 MiB (6%)
  71. Title                                    : Ice.Age.Collision.Course.2016.1080p.3D.BluRay.Half-SBS.x264.DTS-HD.MA.7.1-FGT
  72. Language                                 : English
  73. Default                                  : No
  74. Forced                                   : No
  75.  
  76. Audio #3
  77. ID                                       : 4
  78. Format                                   : AC-3
  79. Format/Info                              : Audio Coding 3
  80. Mode extension                           : CM (complete main)
  81. Format settings, Endianness              : Big
  82. Codec ID                                 : A_AC3
  83. Duration                                 : 1h 34mn
  84. Bit rate mode                            : Constant
  85. Bit rate                                 : 448 Kbps
  86. Channel(s)                               : 6 channels
  87. Channel positions                        : Front: L C R, Side: L R, LFE
  88. Sampling rate                            : 48.0 KHz
  89. Frame rate                               : 31.250 fps (1536 spf)
  90. Compression mode                         : Lossy
  91. Stream size                              : 303 MiB (2%)
  92. Title                                    : Ice.Age.Collision.Course.2016.1080p.3D.BluRay.Half-SBS.x264.DTS-HD.MA.7.1-FGT
  93. Language                                 : English
  94. Default                                  : No
  95. Forced                                   : No
  96.  
  97. Audio #4
  98. ID                                       : 5
  99. Format                                   : AC-3
  100. Format/Info                              : Audio Coding 3
  101. Mode extension                           : CM (complete main)
  102. Format settings, Endianness              : Big
  103. Codec ID                                 : A_AC3
  104. Duration                                 : 1h 34mn
  105. Bit rate mode                            : Constant
  106. Bit rate                                 : 448 Kbps
  107. Channel(s)                               : 6 channels
  108. Channel positions                        : Front: L C R, Side: L R, LFE
  109. Sampling rate                            : 48.0 KHz
  110. Frame rate                               : 31.250 fps (1536 spf)
  111. Compression mode                         : Lossy
  112. Stream size                              : 303 MiB (2%)
  113. Title                                    : Ice.Age.Collision.Course.2016.1080p.3D.BluRay.Half-SBS.x264.DTS-HD.MA.7.1-FGT
  114. Language                                 : Spanish
  115. Default                                  : No
  116. Forced                                   : No
  117.  
  118. Audio #5
  119. ID                                       : 6
  120. Format                                   : DTS
  121. Format/Info                              : Digital Theater Systems
  122. Mode                                     : 16
  123. Format settings, Endianness              : Big
  124. Codec ID                                 : A_DTS
  125. Duration                                 : 1h 34mn
  126. Bit rate mode                            : Constant
  127. Bit rate                                 : 768 Kbps
  128. Channel(s)                               : 6 channels
  129. Channel positions                        : Front: L C R, Side: L R, LFE
  130. Sampling rate                            : 48.0 KHz
  131. Frame rate                               : 93.750 fps (512 spf)
  132. Bit depth                                : 24 bits
  133. Compression mode                         : Lossy
  134. Stream size                              : 519 MiB (3%)
  135. Title                                    : Ice.Age.Collision.Course.2016.1080p.3D.BluRay.Half-SBS.x264.DTS-HD.MA.7.1-FGT
  136. Language                                 : French
  137. Default                                  : No
  138. Forced                                   : No
  139.  
  140. Audio #6
  141. ID                                       : 7
  142. Format                                   : AC-3
  143. Format/Info                              : Audio Coding 3
  144. Mode extension                           : CM (complete main)
  145. Format settings, Endianness              : Big
  146. Codec ID                                 : A_AC3
  147. Duration                                 : 1h 34mn
  148. Bit rate mode                            : Constant
  149. Bit rate                                 : 448 Kbps
  150. Channel(s)                               : 6 channels
  151. Channel positions                        : Front: L C R, Side: L R, LFE
  152. Sampling rate                            : 48.0 KHz
  153. Frame rate                               : 31.250 fps (1536 spf)
  154. Compression mode                         : Lossy
  155. Stream size                              : 303 MiB (2%)
  156. Title                                    : Ice.Age.Collision.Course.2016.1080p.3D.BluRay.Half-SBS.x264.DTS-HD.MA.7.1-FGT
  157. Language                                 : Portuguese
  158. Default                                  : No
  159. Forced                                   : No
  160.  
  161. Text #1
  162. ID                                       : 8
  163. Format                                   : PGS
  164. Muxing mode                              : zlib
  165. Codec ID                                 : S_HDMV/PGS
  166. Codec ID/Info                            : Picture based subtitle format used on BDs/HD-DVDs
  167. Title                                    : English-PGS
  168. Language                                 : English
  169. Default                                  : No
  170. Forced                                   : No
  171.  
  172. Text #2
  173. ID                                       : 9
  174. Format                                   : PGS
  175. Muxing mode                              : zlib
  176. Codec ID                                 : S_HDMV/PGS
  177. Codec ID/Info                            : Picture based subtitle format used on BDs/HD-DVDs
  178. Title                                    : Spanish-PGS
  179. Language                                 : Spanish
  180. Default                                  : No
  181. Forced                                   : No
  182.  
  183. Text #3
  184. ID                                       : 10
  185. Format                                   : PGS
  186. Muxing mode                              : zlib
  187. Codec ID                                 : S_HDMV/PGS
  188. Codec ID/Info                            : Picture based subtitle format used on BDs/HD-DVDs
  189. Title                                    : French-PGS
  190. Language                                 : French
  191. Default                                  : No
  192. Forced                                   : No
  193.  
  194. Text #4
  195. ID                                       : 11
  196. Format                                   : PGS
  197. Muxing mode                              : zlib
  198. Codec ID                                 : S_HDMV/PGS
  199. Codec ID/Info                            : Picture based subtitle format used on BDs/HD-DVDs
  200. Title                                    : French-FORCED-PGS
  201. Language                                 : French
  202. Default                                  : No
  203. Forced                                   : No
  204.  
  205. Text #5
  206. ID                                       : 12
  207. Format                                   : PGS
  208. Muxing mode                              : zlib
  209. Codec ID                                 : S_HDMV/PGS
  210. Codec ID/Info                            : Picture based subtitle format used on BDs/HD-DVDs
  211. Title                                    : Portuguese-PGS
  212. Language                                 : Portuguese
  213. Default                                  : No
  214. Forced                                   : No
  215.  
  216. Menu
  217. 00:00:00.000                             : en01)00:00:00:000
  218. 00:03:09.105                             : en02)00:03:09:105
  219. 00:05:24.365                             : en03)00:05:24:365
  220. 00:09:06.087                             : en04)00:09:06:087
  221. 00:13:22.301                             : en05)00:13:22:301
  222. 00:18:05.751                             : en06)00:18:05:751
  223. 00:20:50.582                             : en07)00:20:50:582
  224. 00:23:10.305                             : en000:23:10:305
  225. 00:27:29.898                             : en09)00:27:29:898
  226. 00:30:15.980                             : en10)00:30:15:980
  227. 00:32:54.347                             : en11)00:32:54:347
  228. 00:36:13.588                             : en12)00:36:13:588
  229. 00:39:33.454                             : en13)00:39:33:454
  230. 00:42:58.701                             : en14)00:42:58:701
  231. 00:47:35.018                             : en15)00:47:35:018
  232. 00:51:11.735                             : en16)00:51:11:735
  233. 00:55:50.764                             : en17)00:55:50:764
  234. 01:01:09.457                             : en101:01:09:457
  235. 01:05:06.402                             : en19)01:05:06:402
  236. 01:09:39.300                             : en20)01:09:39:300
  237. 01:14:36.889                             : en21)01:14:36:889
  238. 01:17:41.531                             : en22)01:17:41:531
  239. 01:21:43.064                             : en23)01:21:43:064
  240. 01:24:46.498                             : en24)01:24:46:498
  241. 01:34:32.500                             : en25)01:34:32:500