Posted : 1 Week ago

  1. Video
  2. ID                                       : 1
  3. Format                                   : AVC
  4. Format/Info                              : Advanced Video Codec
  5. Format profile                           : High@L4.2
  6. Format settings, CABAC                   : Yes
  7. Format settings, ReFrames                : 4 frames
  8. Codec ID                                 : V_MPEG4/ISO/AVC
  9. Duration                                 : 1 h 59 min
  10. Bit rate mode                            : Variable
  11. Bit rate                                 : 2 119 kb/s
  12. Maximum bit rate                         : 62.5 Mb/s
  13. Width                                    : 720 pixels
  14. Height                                   : 304 pixels
  15. Display aspect ratio                     : 2.35:1
  16. Frame rate mode                          : Constant
  17. Frame rate                               : 30.000 FPS
  18. Color space                              : YUV
  19. Chroma subsampling                       : 4:2:0
  20. Bit depth                                : 8 bits
  21. Scan type                                : Progressive
  22. Bits/(Pixel*Frame)                       : 0.323
  23. Stream size                              : 1.77 GiB (89%)
  24. Default                                  : Yes
  25. Forced                                   : No
  26. Color range                              : Full
  27. Color primaries                          : BT.709
  28. Transfer characteristics                 : BT.709
  29. Matrix coefficients                      : BT.709
  30.  
  31. Audio
  32. ID                                       : 2
  33. Format                                   : AC-3
  34. Format/Info                              : Audio Coding 3
  35. Mode extension                           : CM (complete main)
  36. Format settings, Endianness              : Big
  37. Codec ID                                 : A_AC3
  38. Duration                                 : 1 h 59 min
  39. Bit rate mode                            : Constant
  40. Bit rate                                 : 256 kb/s
  41. Channel(s)                               : 2 channels
  42. Channel positions                        : Front: L R
  43. Sampling rate                            : 48.0 kHz
  44. Frame rate                               : 31.250 FPS (1536 spf)
  45. Bit depth                                : 16 bits
  46. Compression mode                         : Lossy
  47. Delay relative to video                  : 1 ms
  48. Stream size                              : 219 MiB (11%)
  49. Default                                  : Yes
  50. Forced                                   : No