Posted : 2 Months ago

  1. General
  2. Complete name                            : D:\Hi-s-.Sec-r-e-t.Past.2016.720p.HDTV.x264-BRISK.mkv
  3. Format                                   : Matroska
  4. Format version                           : Version 2
  5. File size                                : 2.27 GiB
  6. Duration                                 : 1 h 23 min
  7. Overall bit rate                         : 3 874 kb/s
  8. Writing application                      : x264.exe
  9. Writing library                          : mkv2rls x264-tv version built on 2016.10.12
  10.  
  11. Video
  12. ID                                       : 1
  13. Format                                   : AVC
  14. Format/Info                              : Advanced Video Codec
  15. Format profile                           : [email protected]
  16. Format settings, CABAC                   : Yes
  17. Format settings, ReFrames                : 5 frames
  18. Codec ID                                 : V_MPEG4/ISO/AVC
  19. Duration                                 : 1 h 23 min
  20. Bit rate                                 : 3 413 kb/s
  21. Width                                    : 1 280 pixels
  22. Height                                   : 718 pixels
  23. Display aspect ratio                     : 16:9
  24. Frame rate mode                          : Constant
  25. Frame rate                               : 23.976 (24000/1001) FPS
  26. Color space                              : YUV
  27. Chroma subsampling                       : 4:2:0
  28. Bit depth                                : 8 bits
  29. Scan type                                : Progressive
  30. Bits/(Pixel*Frame)                       : 0.155
  31. Stream size                              : 2.00 GiB (88%)
  32. Writing library                          : x264 core 148 r2744 b97ae06
  33. Encoding settings                        : cabac=1 / ref=5 / deblock=1:-2:-2 / analyse=0x3:0x113 / me=hex / subme=8 / psy=1 / psy_rd=1.00:0.00 / mixed_ref=1 / me_range=16 / chroma_me=1 / trellis=2 / 8x8dct=1 / cqm=0 / deadzone=21,11 / fast_pskip=1 / chroma_qp_offset=-2 / threads=18 / lookahead_threads=3 / sliced_threads=0 / nr=0 / decimate=1 / interlaced=0 / bluray_compat=0 / constrained_intra=0 / bframes=3 / b_pyramid=2 / b_adapt=1 / b_bias=0 / direct=3 / weightb=1 / open_gop=0 / weightp=2 / keyint=250 / keyint_min=23 / scenecut=40 / intra_refresh=0 / rc_lookahead=50 / rc=crf / mbtree=1 / crf=18.0 / qcomp=0.60 / qpmin=0 / qpmax=69 / qpstep=4 / ip_ratio=1.40 / aq=1:1.00
  34. Language                                 : English
  35. Default                                  : Yes
  36. Forced                                   : No
  37.  
  38. Audio
  39. ID                                       : 2
  40. Format                                   : AC-3
  41. Format/Info                              : Audio Coding 3
  42. Mode extension                           : CM (complete main)
  43. Format settings, Endianness              : Big
  44. Codec ID                                 : A_AC3
  45. Duration                                 : 1 h 23 min
  46. Bit rate mode                            : Constant
  47. Bit rate                                 : 384 kb/s
  48. Channel(s)                               : 6 channels
  49. Channel positions                        : Front: L C R, Side: L R, LFE
  50. Sampling rate                            : 48.0 kHz
  51. Frame rate                               : 31.250 FPS (1536 spf)
  52. Bit depth                                : 16 bits
  53. Compression mode                         : Lossy
  54. Stream size                              : 231 MiB (10%)
  55. Language                                 : English
  56. Default                                  : Yes
  57. Forced                                   : No
  58.  
  59. Text
  60. ID                                       : 3
  61. Format                                   : UTF-8
  62. Codec ID                                 : S_TEXT/UTF8
  63. Codec ID/Info                            : UTF-8 Plain Text
  64. Title                                    : English
  65. Language                                 : English
  66. Default                                  : No
  67. Forced                                   : No
  68.  
  69.