Posted : 6 Months ago

  1. [IMG]http://lookpic.com/O/i2/100/sqQx2Ptf.jpeg[/IMG]
  2.  
  3. http://www.imdb.com/title/tt2404435/
  4.  
  5. Seven gun men in the old west gradually come together to help a poor village against savage thieves.
  6.  
  7. NOTES:
  8. This is no where near HD-TS but people still seem to tag it wrong not sure why. So took the Russian video and synced CPG audio (thanks to both). Its very watchable and a great movie too if you like westerns.
  9.  
  10. Video Source - Russian EZ (Thank You)
  11. Audio Source - CPG (Thank You)
  12.  
  13. Format                      : AVI
  14. Format/Info                 : Audio Video Interleave
  15. Format profile              : OpenDML
  16. File size                   : 2.00 GiB
  17. Duration                    : 2 h 8 min
  18. Overall bit rate            : 2 239 kb/s
  19. Writing library             : VirtualDub build 30091/release
  20.  
  21. Video
  22. ID                          : 0
  23. Format                      : MPEG-4 Visual
  24. Format profile              : Advanced [email protected]
  25. Format settings, BVOP       : 2
  26. Format settings, QPel       : No
  27. Format settings, GMC        : No warppoints
  28. Format settings, Matrix     : Default (H.263)
  29. Muxing mode                 : Packed bitstream
  30. Codec ID                    : XVID
  31. Codec ID/Hint               : XviD
  32. Duration                    : 2 h 8 min
  33. Bit rate                    : 2 099 kb/s
  34. Width                       : 720 pixels
  35. Height                      : 304 pixels
  36. Display aspect ratio        : 2.35:1
  37. Frame rate                  : 29.970 (29970/1000) FPS
  38. Color space                 : YUV
  39. Chroma subsampling          : 4:2:0
  40. Bit depth                   : 8 bits
  41. Scan type                   : Progressive
  42. Compression mode            : Lossy
  43. Bits/(Pixel*Frame)          : 0.320
  44. Stream size                 : 1.88 GiB (94%)
  45. Writing library             : XviD 67
  46.  
  47. Audio
  48. ID                          : 1
  49. Format                      : MPEG Audio
  50. Format version              : Version 1
  51. Format profile              : Layer 3
  52. Mode                        : Joint stereo
  53. Mode extension              : MS Stereo
  54. Codec ID                    : 55
  55. Codec ID/Hint               : MP3
  56. Duration                    : 2 h 8 min
  57. Bit rate mode               : Constant
  58. Bit rate                    : 128 kb/s
  59. Channel(s)                  : 2 channels
  60. Sampling rate               : 44.1 kHz
  61. Compression mode            : Lossy
  62. Stream size                 : 117 MiB (6%)
  63. Alignment                   : Split accross interleaves
  64. Interleave, duration        : 72  ms (2.16 video frames)
  65. Interleave, preload duratio : 504  ms
  66. Writing library             : LAME3.98
  67.  
  68. [IMG]http://lookpic.com/O/i2/1719/z3QD2BOT.png[/IMG]
  69.  
  70. [IMG]http://lookpic.com/O/i2/1271/dWabMEvX.png[/IMG]
  71.  
  72. [IMG]http://lookpic.com/O/i2/734/x67ILvKc.png[/IMG]