Posted : 2 Months ago

  1. Rogue One A Star Wars Story 2016 READNFO TS XviD AC3 ACAB
  2.  
  3.  
  4.  
  5.  
  6.  
  7. READNFO REASON
  8.  
  9.  Right certainly not the best encode BUT certainly not the worst either. No point in tagging this AS HD-TS cos it clearly aint. Still cant understand why people still use HD tag on a cam, Due to the fact no matter what a CAM is Still a CAM! Anyway, Took the 720p Latino video rotated, adjusted colouring, and blurred the logo in middle of screen that happens 3 or 4 times thru the movie. After all that synced CPG's line audio to it, now the audio is brilliant. This is just my take on it and it seems watchable others may disagree and thats fine everyone entitled to their own opinions.
  10.  
  11.  Source Video = 720p Latino [Thanks]
  12.  
  13.  Source Audio = CPG Line [Thanks ]
  14.  
  15.  Format                                   : AVI
  16.  Format/Info                              : Audio Video Interleave
  17.  File size                                : 1.65 GiB
  18.  Duration                                 : 2 h 5 min
  19.  Overall bit rate                         : 1 887 kb/s
  20.  Writing library                          : VirtualDub build 30091/release
  21.  
  22.  Video
  23.  ID                                       : 0
  24.  Format                                   : MPEG-4 Visual
  25.  Format profile                           : Advanced Simple@L5
  26.  Format settings, BVOP                    : 2
  27.  Format settings, QPel                    : No
  28.  Format settings, GMC                     : No warppoints
  29.  Format settings, Matrix                  : Default (H.263)
  30.  Muxing mode                              : Packed bitstream
  31.  Codec ID                                 : XVID
  32.  Codec ID/Hint                            : XviD
  33.  Duration                                 : 2 h 5 min
  34.  Bit rate                                 : 1 749 kb/s
  35.  Width                                    : 720 pixels
  36.  Height                                   : 288 pixels
  37.  Display aspect ratio                     : 2.500
  38.  Frame rate                               : 23.976 (23976/1000) FPS
  39.  Color space                              : YUV
  40.  Chroma subsampling                       : 4:2:0
  41.  Bit depth                                : 8 bits
  42.  Scan type                                : Progressive
  43.  Compression mode                         : Lossy
  44.  Bits/(Pixel*Frame)                       : 0.352
  45.  Stream size                              : 1.53 GiB (93%)
  46.  Writing library                          : XviD 67
  47.  
  48.  Audio
  49.  ID                                       : 1
  50.  Format                                   : AC-3
  51.  Format/Info                              : Audio Coding 3
  52.  Mode extension                           : CM (complete main)
  53.  Format settings, Endianness              : Big
  54.  Codec ID                                 : 2000
  55.  Duration                                 : 2 h 5 min
  56.  Bit rate mode                            : Constant
  57.  Bit rate                                 : 128 kb/s
  58.  Channel(s)                               : 2 channels
  59.  Channel positions                        : Front: L R
  60.  Sampling rate                            : 44.1 kHz
  61.  Frame rate                               : 28.711 FPS (1536 spf)
  62.  Compression mode                         : Lossy
  63.  Stream size                              : 115 MiB (7%)
  64.  Alignment                                : Split accross interleaves
  65.  Interleave, duration                     : 42  ms (1.00 video frame)
  66.  Interleave, preload duration             : 500  ms