Posted : 10 Months ago

  1. Video
  2. ID                                       : 0
  3. Format                                   : MPEG-4 Visual
  4. Format profile                           : Advanced [email protected]
  5. Format settings, BVOP                    : 2
  6. Format settings, QPel                    : No
  7. Format settings, GMC                     : No warppoints
  8. Format settings, Matrix                  : Default (H.263)
  9. Codec ID                                 : DIVX
  10. Codec ID/Info                            : Project Mayo
  11. Codec ID/Hint                            : DivX 4
  12. Duration                                 : 2 h 4 min
  13. Bit rate                                 : 2 595 kb/s
  14. Width                                    : 720 pixels
  15. Height                                   : 320 pixels
  16. Display aspect ratio                     : 2.25:1
  17. Frame rate                               : 30.000 FPS
  18. Color space                              : YUV
  19. Chroma subsampling                       : 4:2:0
  20. Bit depth                                : 8 bits
  21. Scan type                                : Progressive
  22. Compression mode                         : Lossy
  23. Bits/(Pixel*Frame)                       : 0.375
  24. Stream size                              : 2.25 GiB (93%)
  25. Writing library                          : XviD 64
  26.  
  27. Audio
  28. ID                                       : 1
  29. Format                                   : MPEG Audio
  30. Format version                           : Version 1
  31. Format profile                           : Layer 3
  32. Codec ID                                 : 55
  33. Codec ID/Hint                            : MP3
  34. Duration                                 : 1 h 37 min
  35. Source duration                          : 3 h 5 min
  36. Bit rate mode                            : Constant
  37. Bit rate                                 : 192 kb/s
  38. Channel(s)                               : 2 channels
  39. Sampling rate                            : 44.1 kHz
  40. Compression mode                         : Lossy
  41. Stream size                              : 170 MiB (7%)
  42. Alignment                                : Aligned on interleaves
  43. Interleave, duration                     : 26  ms (0.78 video frame)
  44. Writing library                          : LAME1qc kI¶ÜŒ÷¨ / (
  45.