Posted : 3 Weeks ago

  1. [center][img]http://i.imgur.com/4tJLwDT.jpg[/img]
  2.  
  3.  
  4. [color=blue][size=4][b]Assassins.Creed.2016.HDTS.XVID.AC3.HQ.Hive-CM8[/b][/size][/color]
  5.  
  6. Thx Hive
  7.  
  8. CM8 Doing It Right The First Time
  9.  
  10. Sources:
  11. Video: French Source HDCAM no watermarks thx m8
  12. Audio: English Digital Line Audio (thx cpg)
  13. thx
  14.  
  15. NEWS:
  16. yes still here and kicking, we had to do a brake for some time, bet you are waiting for screeners, yep why not
  17. we were definately not in the mood to do the same mistake as last year screeners before christmas or cinedate
  18. now that christmas holidays are past we are actually looking forward to get the dice rolling.
  19. we want to get them out safely and secure as every year,
  20. whoever has a screener or knows someone who has one and wants to share privately or for public just let us know we are here. (eg.B5 if you want)
  21. addy is at bottom
  22.  
  23.  
  24. Notes:
  25. had the french sourcefiles for some days, was waiting for line to mix them together, fits now nicely
  26.  
  27. Encode:
  28. Quality was already nice, rotated video and fixed perspective. theire was no need to add brightness or sharpness
  29. added line audio from cpg, added subs for the major foreign speaking parts to let you know whats going on
  30.  
  31. got very nice, will do me till retail
  32. enjoy
  33.  
  34.  
  35. Video: 720x320 @bitrate 1700 2pass
  36. Audio: English Digital Line Audio AC3 2.0
  37. Sample: yes included
  38.  
  39. http://www.imdb.com/title/tt2094766/
  40.  
  41.  
  42. General
  43. Complete name                  : Assassins.Creed.2016.HDTS.XVID.AC3.HQ.Hive-CM8.avi
  44. Format                         : AVI
  45. Format/Info                    : Audio Video Interleave
  46. File size                      : 1.39 GiB
  47. Duration                       : 1h 40mn
  48. Overall bit rate               : 1 967 Kbps
  49. Writing application            : Nandub v1.0rc2
  50. Writing library                : Nandub build 1853/release
  51.  
  52. Video
  53. ID                             : 0
  54. Format                         : MPEG-4 Visual
  55. Format profile                 : Advanced Simple@L5
  56. Format settings, BVOP          : 2
  57. Format settings, QPel          : Yes
  58. Format settings, GMC           : No warppoints
  59. Format settings, Matrix        : Default (H.263)
  60. Muxing mode                    : Packed bitstream
  61. Codec ID                       : XVID
  62. Codec ID/Hint                  : XviD
  63. Duration                       : 1h 40mn
  64. Bit rate                       : 1 700 Kbps
  65. Width                          : 720 pixels
  66. Height                         : 320 pixels
  67. Display aspect ratio           : 2.25:1
  68. Frame rate                     : 30.000 fps
  69. Color space                    : YUV
  70. Chroma subsampling             : 4:2:0
  71. Bit depth                      : 8 bits
  72. Scan type                      : Progressive
  73. Compression mode               : Lossy
  74. Bits/(Pixel*Frame)             : 0.246
  75. Stream size                    : 1.20 GiB (86%)
  76. Writing library                : XviD 1.2.1 (UTC 2008-12-04)
  77.  
  78. Audio
  79. ID                             : 1
  80. Format                         : AC-3
  81. Format/Info                    : Audio Coding 3
  82. Mode extension                 : CM (complete main)
  83. Format settings, Endianness    : Big
  84. Codec ID                       : 2000
  85. Duration                       : 1h 40mn
  86. Bit rate mode                  : Constant
  87. Bit rate                       : 256 Kbps
  88. Channel(s)                     : 2 channels
  89. Channel positions              : Front: L R
  90. Sampling rate                  : 48.0 KHz
  91. Bit depth                      : 16 bits
  92. Compression mode               : Lossy
  93. Stream size                    : 184 MiB (13%)
  94. Alignment                      : Split accross interleaves
  95. Interleave, duration           : 33 ms (1.00 video frame)
  96. Interleave, preload duration   : 500 ms
  97.  
  98.  
  99.  
  100. Screens
  101.  
  102. [img]http://i.imgur.com/4jDn2iJ.png[/img]
  103. [img]http://i.imgur.com/gNLFj3J.png[/img]
  104. [img]http://i.imgur.com/gjJhG0O.png[/img]
  105. [img]http://i.imgur.com/S3dAXe6.png[/img]
  106. [img]http://i.imgur.com/uEhFS2x.png[/img]
  107. [img]http://i.imgur.com/IciAdsR.png[/img]
  108. [img]http://i.imgur.com/tllMZU0.png[/img]
  109.  
  110.  
  111.  
  112. Plot
  113.  
  114. When Callum Lynch explores the memories of his ancestor Aguilar and gains the skills of a Master Assassin, he discovers he is a descendant of the secret Assassins society.
  115.  
  116.  
  117. Cast overview, first billed only:
  118.  
  119. Michael Fassbender      ...     Cal Lynch / Aguilar
  120. Marion Cotillard        ...     Sofia
  121. Jeremy Irons            ...     Rikkin
  122. Brendan Gleeson         ...     Joseph Lynch
  123. Charlotte Rampling      ...     Ellen Kaye
  124. Michael Kenneth Williams...     Moussa (as Michael K. Williams)
  125. Denis M╬śnochet         ...     McGowen (as Denis Menochet)
  126. Ariane Labed            ...     Maria
  127. Khalid Abdalla          ...     Sultan Muhammad XII
  128. Essie Davis             ...     Mary Lynch
  129. Matias Varela           ...     Emir
  130. Callum Turner           ...     Nathan
  131. Carlos Bardem           ...     Benedicto
  132. Javier Guti╬śrrez       ...     Tomas de Torquemada
  133. Hovik Keuchkerian       ...     Ojeda
  134.  
  135.  
  136. LOOKING FOR SCREENER GUYS msg us cm8crew@hushmail.com
  137.  
  138. COME FIND US WE DONT BITE[/center]