Posted : 1 Month ago

  1. ENCODED BY NAKRO BABA
  2.  
  3.  
  4.  
  5.  Video
  6.  ID                                       : 0
  7.  Format                                   : MPEG-4 Visual
  8.  Format profile                           : Advanced Simple@L4
  9.  Format settings, BVOP                    : 2
  10.  Format settings, QPel                    : No
  11.  Format settings, GMC                     : No warppoints
  12.  Format settings, Matrix                  : Default (H.263)
  13.  Codec ID                                 : DIVX
  14.  Codec ID/Info                            : Project Mayo
  15.  Codec ID/Hint                            : DivX 4
  16.  Duration                                 : 1 h 47 min
  17.  Bit rate                                 : 2 641 kb/s
  18.  Width                                    : 720 pixels
  19.  Height                                   : 376 pixels
  20.  Display aspect ratio                     : 1.915
  21.  Frame rate                               : 30.000 FPS
  22.  Color space                              : YUV
  23.  Chroma subsampling                       : 4:2:0
  24.  Bit depth                                : 8 bits
  25.  Scan type                                : Progressive
  26.  Compression mode                         : Lossy
  27.  Bits/(Pixel*Frame)                       : 0.325
  28.  Stream size                              : 1.98 GiB (91%)
  29.  Writing library                          : XviD 64
  30.  
  31.  Audio
  32.  ID                                       : 1
  33.  Format                                   : AC-3
  34.  Format/Info                              : Audio Coding 3
  35.  Mode extension                           : CM (complete main)
  36.  Format settings, Endianness              : Big
  37.  Codec ID                                 : 2000
  38.  Duration                                 : 1 h 47 min
  39.  Bit rate mode                            : Constant
  40.  Bit rate                                 : 256 kb/s
  41.  Channel(s)                               : 2 channels
  42.  Channel positions                        : Front: L R
  43.  Sampling rate                            : 48.0 kHz
  44.  Frame rate                               : 31.250 FPS (1536 spf)
  45.  Bit depth                                : 16 bits
  46.  Compression mode                         : Lossy
  47.  Stream size                              : 196 MiB (9%)
  48.  Alignment                                : Aligned on interleaves
  49.  Interleave, duration                     : 32  ms (0.96 video frame)
  50.  
  51.  INFO:
  52.  
  53.  had pleasure to work on A WATERMARKED ASS CPG VIDEO, as usual THE IDIOT WATERMARKED IT BADLY ON MIDDLE,TOP , DOWN , SIDE , LEFT , RIGHT THROUGH OUT THE WHOLE VIDEO ....AND HE MADE A HUGE CRAP.....
  54.  
  55.  polished the CPG turd best we could... remember kids, poo shine help out any encoder or release grp... to remove CPG crap WATERMARK FROM VIDEO.
  56.  
  57.  Now
  58.  to the re-encoders
  59.  stop being lazy contact us with your group name and we will give u each one POO SHINE SPRAY BOTTLE TO POLISH CPG TURD and then lets see what you can do