Posted : 3 Weeks ago

  1. Format                      : AVI
  2.  Format/Info                 : Audio Video Interleave
  3.  Format profile              : OpenDML
  4.  File size                   : 2.31 GiB
  5.  Duration                    : 1 h 39 min
  6.  Overall bit rate            : 3 329 kb/s
  7.  Writing library             : VirtualDub build 30091/release
  8.  
  9.  Video
  10.  ID                          : 0
  11.  Format                      : MPEG-4 Visual
  12.  Format profile              : Advanced Simple@L5
  13.  Format settings, BVOP       : 2
  14.  Format settings, QPel       : No
  15.  Format settings, GMC        : No warppoints
  16.  Format settings, Matrix     : Default (H.263)
  17.  Muxing mode                 : Packed bitstream
  18.  Codec ID                    : XVID
  19.  Codec ID/Hint               : XviD
  20.  Duration                    : 1 h 39 min
  21.  Bit rate                    : 3 187 kb/s
  22.  Width                       : 1 280 pixels
  23.  Height                      : 544 pixels
  24.  Display aspect ratio        : 2.35:1
  25.  Frame rate                  : 30.000 FPS
  26.  Color space                 : YUV
  27.  Chroma subsampling          : 4:2:0
  28.  Bit depth                   : 8 bits
  29.  Scan type                   : Progressive
  30.  Compression mode            : Lossy
  31.  Bits/(Pixel*Frame)          : 0.153
  32.  Stream size                 : 2.21 GiB (96%)
  33.  Writing library             : XviD 73
  34.  
  35.  Audio
  36.  ID                          : 1
  37.  Format                      : AC-3
  38.  Format/Info                 : Audio Coding 3
  39.  Mode extension              : CM (complete main)
  40.  Format settings, Endianness : Big
  41.  Codec ID                    : 2000
  42.  Duration                    : 1 h 39 min
  43.  Bit rate mode               : Constant
  44.  Bit rate                    : 128 kb/s
  45.  Channel(s)                  : 2 channels
  46.  Channel positions           : Front: L R
  47.  Sampling rate               : 48.0 kHz
  48.  Frame rate                  : 31.250 FPS (1536 spf)
  49.  Bit depth                   : 16 bits
  50.  Compression mode            : Lossy
  51.  Stream size                 : 90.8 MiB (4%)
  52.  Alignment                   : Aligned on interleaves
  53.  Interleave, duration        : 33  ms (1.00 video frame)
  54.  Interleave, preload duratio : 512  ms