Posted : 7 Months ago

  1. General
  2. Unique ID                                : 171401872798314559832857709255368688923 (0x80F2CCC8841DF82789DFC68DCD30C51B)
  3. Complete name                            : D:\adaline.2015.dvdrip.x264-sprinter.mkv
  4. Format                                   : Matroska
  5. Format version                           : Version 4 / Version 2
  6. File size                                : 507 MiB
  7. Duration                                 : 1 h 36 min
  8. Overall bit rate                         : 734 kb/s
  9. Encoded date                             : UTC 2016-11-07 01:02:21
  10. Writing application                      : mkvmerge v9.4.2 ('So High') 64bit
  11. Writing library                          : libebml v1.3.4 + libmatroska v1.4.5
  12.  
  13. Video
  14. ID                                       : 1
  15. Format                                   : AVC
  16. Format/Info                              : Advanced Video Codec
  17. Format profile                           : [email protected]
  18. Format settings, CABAC                   : Yes
  19. Format settings, ReFrames                : 5 frames
  20. Codec ID                                 : V_MPEG4/ISO/AVC
  21. Duration                                 : 1 h 36 min
  22. Bit rate                                 : 627 kb/s
  23. Width                                    : 720 pixels
  24. Height                                   : 306 pixels
  25. Display aspect ratio                     : 2.35:1
  26. Frame rate mode                          : Constant
  27. Frame rate                               : 23.976 (24000/1001) FPS
  28. Color space                              : YUV
  29. Chroma subsampling                       : 4:2:0
  30. Bit depth                                : 8 bits
  31. Scan type                                : Progressive
  32. Bits/(Pixel*Frame)                       : 0.119
  33. Stream size                              : 433 MiB (85%)
  34. Writing library                          : x264 core 148 r2705 3f5ed56
  35. Encoding settings                        : cabac=1 / ref=5 / deblock=1:0:0 / analyse=0x3:0x113 / me=umh / subme=8 / psy=1 / psy_rd=1.00:0.00 / mixed_ref=1 / me_range=16 / chroma_me=1 / trellis=1 / 8x8dct=1 / cqm=0 / deadzone=21,11 / fast_pskip=1 / chroma_qp_offset=-2 / threads=10 / lookahead_threads=1 / sliced_threads=0 / nr=0 / decimate=1 / interlaced=0 / bluray_compat=0 / constrained_intra=0 / bframes=3 / b_pyramid=2 / b_adapt=2 / b_bias=0 / direct=3 / weightb=1 / open_gop=0 / weightp=2 / keyint=250 / keyint_min=23 / scenecut=40 / intra_refresh=0 / rc_lookahead=50 / rc=crf / mbtree=1 / crf=19.0 / qcomp=0.60 / qpmin=0 / qpmax=69 / qpstep=4 / ip_ratio=1.40 / aq=1:1.00
  36. Default                                  : Yes
  37. Forced                                   : No
  38.  
  39. Audio
  40. ID                                       : 2
  41. Format                                   : AAC
  42. Format/Info                              : Advanced Audio Codec
  43. Format profile                           : LC
  44. Codec ID                                 : A_AAC
  45. Duration                                 : 1 h 36 min
  46. Bit rate                                 : 105 kb/s
  47. Channel(s)                               : 2 channels
  48. Channel positions                        : Front: L R
  49. Sampling rate                            : 48.0 kHz
  50. Frame rate                               : 46.875 FPS (1024 spf)
  51. Compression mode                         : Lossy
  52. Delay relative to video                  : 20 ms
  53. Stream size                              : 72.8 MiB (14%)
  54. Language                                 : English
  55. Default                                  : Yes
  56. Forced                                   : No
  57.  
  58.