Posted : 4 Months ago

  1. General
  2. Unique ID                                : 244003359899366269437280596199054546054 (0xB7915675DFFAA8F29094FBD5F3CC9486)
  3. Complete name                            : D:\M.B.1980.iNTERNAL.BDRip.x264-LiBRARiANS.mkv
  4. Format                                   : Matroska
  5. Format version                           : Version 4 / Version 2
  6. File size                                : 1.15 GiB
  7. Duration                                 : 1 h 36 min
  8. Overall bit rate                         : 1 703 kb/s
  9. Encoded date                             : UTC 2016-11-14 14:11:18
  10. Writing application                      : mkvmerge v9.5.0 ('Quiet Fire') 64bit
  11. Writing library                          : libebml v1.3.4 + libmatroska v1.4.5
  12.  
  13. Video
  14. ID                                       : 1
  15. Format                                   : AVC
  16. Format/Info                              : Advanced Video Codec
  17. Format profile                           : [email protected]
  18. Format settings, CABAC                   : Yes
  19. Format settings, ReFrames                : 5 frames
  20. Codec ID                                 : V_MPEG4/ISO/AVC
  21. Duration                                 : 1 h 36 min
  22. Bit rate                                 : 1 626 kb/s
  23. Width                                    : 720 pixels
  24. Height                                   : 390 pixels
  25. Display aspect ratio                     : 1.85:1
  26. Frame rate mode                          : Constant
  27. Frame rate                               : 23.976 (24000/1001) FPS
  28. Color space                              : YUV
  29. Chroma subsampling                       : 4:2:0
  30. Bit depth                                : 8 bits
  31. Scan type                                : Progressive
  32. Bits/(Pixel*Frame)                       : 0.242
  33. Stream size                              : 1.10 GiB (95%)
  34. Writing library                          : x264 core 148 r2721 72d53ab
  35. Encoding settings                        : cabac=1 / ref=5 / deblock=1:-3:-3 / analyse=0x3:0x113 / me=umh / subme=8 / psy=1 / psy_rd=1.00:0.25 / mixed_ref=1 / me_range=24 / chroma_me=1 / trellis=1 / 8x8dct=1 / cqm=0 / deadzone=21,11 / fast_pskip=1 / chroma_qp_offset=-4 / threads=12 / lookahead_threads=2 / sliced_threads=0 / nr=0 / decimate=1 / interlaced=0 / bluray_compat=0 / constrained_intra=0 / bframes=3 / b_pyramid=2 / b_adapt=1 / b_bias=0 / direct=3 / weightb=1 / open_gop=0 / weightp=2 / keyint=240 / keyint_min=24 / scenecut=40 / intra_refresh=0 / rc_lookahead=50 / rc=crf / mbtree=1 / crf=21.0 / qcomp=0.60 / qpmin=0 / qpmax=69 / qpstep=4 / ip_ratio=1.40 / aq=1:0.75
  36. Default                                  : Yes
  37. Forced                                   : No
  38. Color range                              : Limited
  39. Matrix coefficients                      : BT.709
  40.  
  41. Audio
  42. ID                                       : 2
  43. Format                                   : AAC
  44. Format/Info                              : Advanced Audio Codec
  45. Format profile                           : LC
  46. Codec ID                                 : A_AAC
  47. Duration                                 : 1 h 36 min
  48. Bit rate                                 : 74.9 kb/s
  49. Channel(s)                               : 1 channel
  50. Channel positions                        : Front: C
  51. Sampling rate                            : 48.0 kHz
  52. Frame rate                               : 46.875 FPS (1024 spf)
  53. Compression mode                         : Lossy
  54. Delay relative to video                  : 9 ms
  55. Stream size                              : 51.7 MiB (4%)
  56. Language                                 : English
  57. Default                                  : Yes
  58. Forced                                   : No
  59.  
  60. Menu
  61. 00:00:00.000                             : en:00:00:00.000
  62. 00:10:08.650                             : en:00:10:08.650
  63. 00:18:06.585                             : en:00:18:06.585
  64. 00:28:09.104                             : en:00:28:09.104
  65. 00:43:46.249                             : en:00:43:46.249
  66. 00:56:33.265                             : en:00:56:33.265
  67. 01:17:48.455                             : en:01:17:48.455
  68. 01:25:50.020                             : en:01:25:50.020
  69.  
  70.