Posted : 1 Year ago

  1. Video
  2. ID                                       : 1
  3. Format                                   : AVC
  4. Format/Info                              : Advanced Video Codec
  5. Format profile                           : [email protected]
  6. Format settings, CABAC                   : Yes
  7. Format settings, ReFrames                : 3 frames
  8. Codec ID                                 : V_MPEG4/ISO/AVC
  9. Duration                                 : 2h 8mn
  10. Bit rate mode                            : Variable
  11. Bit rate                                 : 2 200 Kbps
  12. Maximum bit rate                         : 62.5 Mbps
  13. Width                                    : 720 pixels
  14. Height                                   : 320 pixels
  15. Display aspect ratio                     : 2.25:1
  16. Frame rate mode                          : Constant
  17. Frame rate                               : 29.970 (30000/1001) fps
  18. Color space                              : YUV
  19. Chroma subsampling                       : 4:2:0
  20. Bit depth                                : 8 bits
  21. Scan type                                : Progressive
  22. Bits/(Pixel*Frame)                       : 0.319
  23. Stream size                              : 1.97 GiB (92%)
  24. Writing library                          : x264 core 148 r2638 7599210
  25. Encoding settings                        : cabac=1 / ref=3 / deblock=1:0:0 / analyse=0x3:0x133 / me=umh / subme=9 / psy=1 / psy_rd=1.00:0.00 / mixed_ref=1 / me_range=18 / chroma_me=1 / trellis=2 / 8x8dct=1 / cqm=0 / deadzone=21,11 / fast_pskip=0 / chroma_qp_offset=-2 / threads=16 / lookahead_threads=1 / sliced_threads=0 / slices=4 / nr=0 / decimate=1 / interlaced=0 / bluray_compat=0 / constrained_intra=0 / bframes=3 / b_pyramid=1 / b_adapt=2 / b_bias=0 / direct=3 / weightb=1 / open_gop=0 / weightp=2 / keyint=300 / keyint_min=29 / scenecut=40 / intra_refresh=0 / rc_lookahead=40 / rc=abr / mbtree=1 / bitrate=2200 / ratetol=1.0 / qcomp=0.60 / qpmin=10 / qpmax=51 / qpstep=4 / vbv_maxrate=62500 / vbv_bufsize=78125 / nal_hrd=vbr / filler=0 / ip_ratio=1.40 / aq=1:1.00
  26. Default                                  : Yes
  27. Forced                                   : No
  28. Color range                              : Full
  29. Color primaries                          : BT.709
  30. Transfer characteristics                 : BT.709
  31. Matrix coefficients                      : BT.709
  32.  
  33. Audio
  34. ID                                       : 2
  35. Format                                   : MPEG Audio
  36. Format version                           : Version 1
  37. Format profile                           : Layer 3
  38. Codec ID                                 : A_MPEG/L3
  39. Codec ID/Hint                            : MP3
  40. Duration                                 : 2h 8mn
  41. Bit rate mode                            : Constant
  42. Bit rate                                 : 192 Kbps
  43. Channel(s)                               : 2 channels
  44. Sampling rate                            : 44.1 KHz
  45. Frame rate                               : 38.281 fps (1152 spf)
  46. Compression mode                         : Lossy
  47. Delay relative to video                  : 4ms
  48. Stream size                              : 176 MiB (8%)
  49. Default                                  : Yes
  50. Forced                                   : No
  51.  
  52.